Adapter Support

Name is required.
Email address is required.
Invalid email address
Answer is required.
Exceeding max length of 5KB

wmav2 to m4v conversion

Antonio Jun 03, 2016 04:59AM CDT

I am trying to convert my movie in wma to m4v to be visible on my Apple TV by PC. But I have an error when I try to convert from grafic interface and from the command prompt..

below the ffmpeg error output:

....
Input #0, asf, from 'C:\Users\Samsung\Documents\BdR\Saggi 2016\Todo Caribe\IMG_4339.wmv':
Metadata:
DeviceConformanceTemplate: SP
IsVBR : 0
MediaFoundationVersion: 2.112
Duration: 00:02:42.49, start: 0.000000, bitrate: 1661 kb/s
Stream #0:0(eng): Audio: wmav2 (a[1][0][0] / 0x0161), 48000 Hz, stereo, fltp, 160 kb/s
Stream #0:1(eng): Video: wmv3 (Simple) (WMV3 / 0x33564D57), yuv420p, 640x352, 1492 kb/s, SAR 1:1 DAR 20:11, 30 tbr, 1k tbn, 1k tbc
[AVFilterGraph @ 0240b6e0] No such filter: '1'
Error configuring filters.

C:\Windows\system32>

Post Your Public Answer


support@macroplant.com
http://assets3.desk.com/
false
desk
Loading
seconds ago
a minute ago
minutes ago
an hour ago
hours ago
a day ago
days ago
about
false
Invalid characters found
/customer/en/portal/articles/autocomplete